CGBlog: VILLA T - Full Training



CGBlog: VILLA T - Full Training
AAC | 110 Kbps | 44.1 KHz | 2 channels | 50 minutes | 261 MBGenre: Video Tutorial / Autodesk 3ds Max, V-Ray, Photoshop

Adjust the lighting, creating materials, rendering and post processing of T-type villa with 3D MAX, V-Ray and Photoshop
Topics Covered:
1. Light Balance
2. V-Ray Materials
3. Final & Post
Analisys of the light contributes
Analysis of the shot and the composition rules
The main lighting rule;
How to use wide angle for compositions?
An easy approach for night renders;
Vray light and directional feature;
How to save time with “fill lights”;
Use a V-Ray camera for chromatic contrast;
What’s Multi sub-object material;
How to see perfectly the texture in the viewport;
Contrast textures with Photoshop;
Contrast textures with Output;
Contrast textures with Color Correction;
Use VRayCompTex;
Use VRayColor;
V-Ray Fur: easy and effective;
Prepare the render for post production;
Control the Alpha channel;
Merge render with background;
Light&Shade technique;
Add flares and anharmonic flares;
Control the details with Unsharp Mask;
Grass replacement;
Project files are included
Required Software: 3D MAX 2010, V-Ray 1.5, Photoshop CS4
General
Complete name : Villa T_part1.mp4
Format : MPEG-4
Format profile : Base Media / Version 2
Codec ID : mp42
File size : 34.8 MiB
Duration : 15mn 29s
Overall bit rate mode : Variable
Overall bit rate : 314 Kbps
Encoded date : UTC 2012-11-06 14:37:13
Tagged date : UTC 2012-11-06 14:37:13
Video #1
ID : 1
Format : AVC
Format/Info : Advanced Video Codec
Format profile : High@L3.1
Format settings, CABAC : Yes
Format settings, ReFrames : 4 frames
Format settings, GOP : M=4, N=45
Codec ID : avc1
Codec ID/Info : Advanced Video Coding
Duration : 15mn 29s
Bit rate : 202 Kbps
Width : 640 pixels
Height : 360 pixels
Display aspect ratio : 16:9
Frame rate mode : Constant
Frame rate : 15.000 fps
Color space : YUV
Chroma subsampling : 4:2:0
Bit depth : 8 bits
Scan type : Progressive
Bits/(Pixel*Frame) : 0.058
Stream size : 22.4 MiB (64%)
Writing library : x264 core 128 r2216 198a7ea
Encoding settings : cabac=1 / ref=3 / deblock=1:0:0 / analyse=0x3:0x113 / me=hex / subme=7 / psy=1 / psy_rd=1.00:0.00 / mixed_ref=1 / me_range=16 / chroma_me=1 / trellis=1 / 8x8dct=1 / cqm=0 / deadzone=21,11 / fast_pskip=1 / chroma_qp_offset=-2 / threads=12 / lookahead_threads=2 / sliced_threads=0 / nr=0 / decimate=1 / interlaced=0 / bluray_compat=0 / constrained_intra=0 / bframes=3 / b_pyramid=2 / b_adapt=1 / b_bias=0 / direct=1 / weightb=1 / open_gop=0 / weightp=2 / keyint=45 / keyint_min=15 / scenecut=40 / intra_refresh=0 / rc_lookahead=40 / rc=2pass / mbtree=1 / bitrate=202 / ratetol=1.0 / qcomp=0.60 / qpmin=5 / qpmax=69 / qpstep=4 / cplxblur=20.0 / qblur=0.5 / vbv_maxrate=1125 / vbv_bufsize=3750 / nal_hrd=none / ip_ratio=1.40 / aq=1:1.00
Encoded date : UTC 2012-11-06 14:37:13
Tagged date : UTC 2012-11-06 14:37:13
Audio #2
ID : 2
Format : AAC
Format/Info : Advanced Audio Codec
Format profile : LC
Codec ID : 40
Duration : 15mn 29s
Bit rate mode : Variable
Bit rate : 110 Kbps
Channel(s) : 2 channels
Channel positions : Front: L R
Sampling rate : 44.1 KHz
Compression mode : Lossy
Stream size : 12.1 MiB (35%)
Encoded date : UTC 2012-11-06 14:37:13
Tagged date : UTC 2012-11-06 14:37:13
Material_Duration : 929843
Material_StreamSize : 12737489Screenshots
For more, Visit my
no mirrors please, Follow The Rules

http://www.cg-blog.com/index.php/2012/12/09/villa-t-full-training.htm
CG.Blog.VILLA.T.part3.rar
CG.Blog.VILLA.T.part2.rar
CG.Blog.VILLA.T.part1.rar