The Creative Spark: Von Glitschka, Illustrative Designer (2013)



The Creative Spark: Von Glitschka, Illustrative Designer (2013)
Von Glitschka creates visual identities, characters, and logos for high-profile ad agencies and companies around the world. But he still believes in the power of taking the brain offline—stepping away from the computer and using 'analog' methods to solve design challenges. For Von, this means drawing. It's free, it's quick, it's liberating, and it makes design accessible to almost anyone. And by putting his pen to paper first, Von comes away with dozens of ideas that can be translated into digital designs. Take a trip to Salem, Oregon, and watch this master designer at work as he sketches his ideas and refines them in Adobe Photoshop and Illustrator. Then join Von at play as he trawls junkyards on the hunt for color, texture, and patterns to use in his designs. He also lets us in on his 5ive Minute Logo project, a tongue-in-cheek response to the rise of cheap online design clearinghouses that turned, ironically, into a great creative outlet. As he says, even if he wanted to make it, 'life is too short for bad art.'

The Creative Spark 7m 48s
Preview 1m 16s
Von Glitschka, Illustrative Designer 6m 32s
Extended Features 10m 17s
In depth: 5ive Minute Logo 4m 40s
Exploring textures for design 3m 9s
In depth: HOW poster process 2m 28s
Format : MPEG-4
Format profile : Base Media / Version 2
Codec ID : mp42
File size : 84.8 MiB
Duration : 6mn 32s
Overall bit rate : 1 812 Kbps
Encoded date : UTC 2013-07-10 19:19:45
Tagged date : UTC 2013-07-10 19:19:45
Writing library : Apple QuickTime
Copyright : lynda.com
Video #2
ID : 2
Format : AVC
Format/Info : Advanced Video Codec
Format profile : Main@L3.1
Format settings, CABAC : Yes
Format settings, ReFrames : 3 frames
Codec ID : avc1
Codec ID/Info : Advanced Video Coding
Duration : 6mn 32s
Bit rate mode : Variable
Bit rate : 1 649 Kbps
Width : 960 pixels
Height : 540 pixels
Display aspect ratio : 16:9
Frame rate mode : Constant
Frame rate : 23.976 fps
Standard : NTSC
Resolution : 24 bits
Colorimetry : 4:2:0
Scan type : Progressive
Bits/(Pixel*Frame) : 0.133
Stream size : 77.2 MiB (91%)
Encoded date : UTC 2013-07-10 19:19:45
Tagged date : UTC 2013-07-10 19:19:45
Audio #1
ID : 1
Format : AAC
Format/Info : Advanced Audio Codec
Format version : Version 4
Format profile : LC
Format settings, SBR : No
Codec ID : 40
Duration : 6mn 32s
Bit rate mode : Variable
Bit rate : 160 Kbps
Maximum bit rate : 168 Kbps
Channel(s) : 2 channels
Channel positions : L R
Sampling rate : 48.0 KHz
Resolution : 16 bits
Stream size : 7.49 MiB (9%)
Encoded date : UTC 2013-07-10 19:19:45
Tagged date : UTC 2013-07-10 19:19:45
No mirrors please

Creatu_Spe_Glitse_Illustra_Desige.part1.rar
Creatu_Spe_Glitse_Illustra_Desige.part2.rar
Creatu_Spe_Glitse_Illustra_Desige.part3.rar
Creatu_Spe_Glitse_Illustra_Desige.part4.rar
Creatu_Spe_Glitse_Illustra_Desige.part5.rar